[Login] or [Signup]
Login
Username:
Password:
[Signup]
[Recover Account]


Poll


You must be logged in to view polls



Torrent Details For "Hashar (2008) Punjabi 720p WEB-DL x264 AC3-Sun George"

Hashar (2008) Punjabi 720p WEB-DL x264 AC3-Sun George

Download this torrent | Magnet Download
Health:
Seeds: 0
Leechers: 0
Completed:
Last Checked: 16-10-2018 09:42:28
External Torrent
Update Stats
Download Magnet


Poster


iMDB
Title: Hashar: A Love Story...
Year: 2008
Votes: 163
Rating: 6.7/10
Language: Punjabi
Director: Gaurav Trehan
Writing By: Master Tarlochan Singh,
Produced By: Lucky Dhindsa,Harjinder Garcha,
Music: Babbu Mann
Cast:
Babbu Mann as Maninder
Gurleen Chopra as Shagan
Akshita Sharma as Param
Satwant Kaur as Shagan's Mother
Gurkirtan as SHO
Vikrant Anand as
Kartar Cheema as Lally
Anita Devgan as Chachi
Hardeep Gill as Chacha
Victor John as Bawa


Watch-Free-HD     Download

Details
Name:Hashar (2008) Punjabi 720p WEB-DL x264 AC3-Sun George
Description:
Hashar (2008) Punjabi 720p WEB-DL x264 AC3-Sun George







===================================================================

General
Format                      : Matroska
Format version              : Version 4 / Version 2
File size                   : 1.68 GiB
Duration                    : 2 h 54 min
Overall bit rate            : 1 378 kb/s
Movie name : Hashar (2008) Punjabi 720p WEB-DL x264 AC3-Sun George

===================================================================

Video
ID                          : 1
Format                      : AVC
Format/Info                 : Advanced Video Codec
Format profile              : [email protected]
Format settings             : CABAC / 5 Ref Frames
Format settings, CABAC      : Yes
Format settings, ReFrames   : 5 frames
Codec ID                    : V_MPEG4/ISO/AVC
Duration                    : 2 h 54 min
Bit rate                    : 1 000 kb/s
Width                       : 1 280 pixels
Height                      : 720 pixels
Display aspect ratio        : 16:9
Frame rate mode             : Constant
Frame rate                  : 24.000 FPS
Color space                 : YUV
Chroma subsampling          : 4:2:0
Bit depth                   : 8 bits
Scan type                   : Progressive
Bits/(Pixel*Frame)          : 0.045
Stream size                 : 1.21 GiB (72%)
Title                       : Sun George

===================================================================

Audio
ID                          : 2
Format                      : AC-3
Format/Info                 : Audio Coding 3
Codec ID                    : A_AC3
Duration                    : 2 h 54 min
Bit rate mode               : Constant
Bit rate                    : 384 kb/s
Channel(s)                  : 2 channels
Channel positions           : Front: L R
Sampling rate               : 48.0 kHz
Frame rate                  : 31.250 FPS (1536 SPF)
Bit depth                   : 16 bits
Compression mode            : Lossy
Delay relative to video     : 21 ms
Stream size                 : 480 MiB (28%)
Title                       : Sun George
Language                    : Panjabi
Service kind                : Complete Main
Default                     : Yes
Forced                      : No




 

 

 

 

 

 

 

 

 

 
Category:Movies > Punjabi
Lang:Punjabi
Total Size:1.70 GB
Info Hash:d8dccf2933cd147c8d854974460656f0c072d293
Added By:sungeorge
Date Added:16-10-2018 09:42:28
Views:695
Hits:71

Download Torrent

Ratings:Not Yet Rated (Log in to rate it)

  


Tracker:
udp://tracker.pirateparty.gr:6969/announce


File List: 



NFO:

Comments

No comments still posted

Powered by 10 Hamsters v2-svn -|- Page Generated In 1.001037 secs.
-|- RSS FEED
Theme By: Nikkbu