[Login] or [Signup]
Login
Username:
Password:
[Signup]
[Recover Account]


Poll


You must be logged in to view polls



Torrent Details For "Dharti (2011) Punjabi 720p WEB-DL AVC AC3-Sun George"

Dharti (2011) Punjabi 720p WEB-DL AVC AC3-Sun George

Download this torrent | Magnet Download
Health:
Seeds: 79
Leechers: 169
Completed: 254 
Last Checked: 18-10-2018 07:02:23
External Torrent
Update Stats
Download Magnet


Poster


iMDB
Title: Dharti
Year: 2011
Votes: 312
Rating: 7.2/10
Language: Punjabi, Hindi
Director: Navaniat Singh
Writing By: Manoj Jha,Manoj K. Jha,
Produced By: Darshan Singh Grewal,J.S. Kataria,Jimmy Sheirgill,
Music: Jaidev Kumar
Cast:
Jimmy Sheirgill as Jasdeep Wadala
Surveen Chawla as Surveen
Japji Khaira as Suhana
Rannvijay Singh as Ranvijay
Prem Chopra as
Rahul Dev as
Shavinder Mahal as Jasdeep's Uncle
Jaspal Bhatti as Surveen's Dad
Ramandep Arya as


Watch-Free-HD     Download

Details
Name:Dharti (2011) Punjabi 720p WEB-DL AVC AC3-Sun George
Description:
Dharti (2011) Punjabi 720p WEB-DL AVC AC3-Sun George







===================================================================

General
Format                      : Matroska
Format version              : Version 4 / Version 2
File size                   : 982 MiB
Duration                    : 1 h 52 min
Overall bit rate            : 1 222 kb/s
Movie name : Dharti (2011) Punjabi 720p WEB-DL AVC AC3-Sun George

===================================================================

Video
ID                          : 1
Format                      : AVC
Format/Info                 : Advanced Video Codec
Format profile              : [email protected]
Format settings             : CABAC / 5 Ref Frames
Format settings, CABAC      : Yes
Format settings, ReFrames   : 5 frames
Codec ID                    : V_MPEG4/ISO/AVC
Duration                    : 1 h 52 min
Bit rate                    : 1 000 kb/s
Width                       : 1 280 pixels
Height                      : 720 pixels
Display aspect ratio        : 16:9
Frame rate mode             : Constant
Frame rate                  : 25.000 FPS
Color space                 : YUV
Chroma subsampling          : 4:2:0
Bit depth                   : 8 bits
Scan type                   : Progressive
Bits/(Pixel*Frame)          : 0.043
Stream size                 : 801 MiB (82%)
Title                       : Sun George

===================================================================

Audio
ID                          : 2
Format                      : AC-3
Format/Info                 : Audio Coding 3
Codec ID                    : A_AC3
Duration                    : 1 h 52 min
Bit rate mode               : Constant
Bit rate                    : 224 kb/s
Channel(s)                  : 2 channels
Channel positions           : Front: L R
Sampling rate               : 48.0 kHz
Frame rate                  : 31.250 FPS (1536 SPF)
Bit depth                   : 16 bits
Compression mode            : Lossy
Delay relative to video     : 21 ms
Stream size                 : 180 MiB (18%)
Title                       : Sun George
Language                    : Panjabi
Service kind                : Complete Main
Default                     : Yes
Forced                      : No




 

 

 

 

 

 

 

 

 

 

 
Category:Movies > Punjabi
Lang:Punjabi
Total Size:1,001.85 MB
Info Hash:e6d2b13e7189401325dac9e30277901bfea47f8d
Added By:sungeorge
Date Added:17-10-2018 13:03:28
Views:654
Hits:92

Download Torrent

Ratings:Not Yet Rated (Log in to rate it)

  


Tracker:
udp://tracker.pirateparty.gr:6969/announce


File List: 



NFO:

Comments

No comments still posted

Powered by 10 Hamsters v2-svn -|- Page Generated In 1.044985 secs.
-|- RSS FEED
Theme By: Nikkbu