[Login] or [Signup]
Login
Username:
Password:
[Signup]
[Recover Account]


Poll


You must be logged in to view polls



Torrent Details For "Vadhayiyaan Ji Vadhayiyaan (2018) Punjabi HDTVRip x264 AAC 1.5GB - [MovCr]"

Vadhayiyaan Ji Vadhayiyaan (2018) Punjabi HDTVRip x264 AAC 1.5GB - [MovCr]

Download this torrent | Magnet Download
Health:
Seeds: 386
Leechers: 97
Completed: 2,304 
Last Checked: 24-10-2018 07:08:18
External Torrent
Update Stats
Download Magnet


Poster


iMDB
Title: Vadhayiyaan Ji Vadhayiyaan
Year: 2018
Runtime: 122 minutes
Language: Punjabi
All Genres: Comedy
Director: Smeep Kang
Writing By: Rakesh Dhawan,Shreya Srivastava,Vaibhav Suman,
Produced By: Binnu Dhillon,
Cast:
Binnu Dhillon as
Kavita Kaushik as
Karamjit Anmol as
Gurpreet Ghuggi as
B.N. Sharma as
Jaswinder Bhalla as
Trailers:
Vadhayiyaan Ji Vadhayiyaan trailer


Watch-Free-HD     Download

Details
Name:Vadhayiyaan Ji Vadhayiyaan (2018) Punjabi HDTVRip x264 AAC 1.5GB - [MovCr]
Description:
Vadhayiyaan Ji Vadhayiyaan (2018) Punjabi HDTVRip x264 AAC 1.5GB - [MovCr]

Our Site   http://movcr.cc



 http://www.imdb.com/title/tt8221676/




 


General
Unique ID                                : 217195656541596468426203771577799137668 (0xA3665CA3ABEEC775AA8D953E42F1D984)
Complete name                            : www.MovCr.cc - Vadhayiyaan Ji Vadhayiyaan (2018) Punjabi HDTVRip x264 AAC 1.5GB - [MovCr].mkv
Format                                   : Matroska
Format version                           : Version 4 / Version 2
File size                                : 1.46 GiB
Duration                                 : 2 h 2 min
Overall bit rate                         : 1 711 kb/s
Movie name                               : www.MovCr.cc
Encoded date                             : UTC 2018-10-22 11:48:42
Writing application                      : mkvmerge v26.0.0 ('In The Game') 64-bit
Writing library                          : libebml v1.3.6 + libmatroska v1.4.9

Video
ID                                       : 1
Format                                   : AVC
Format/Info                              : Advanced Video Codec
Format profile                           : [email protected]
Format settings                          : CABAC / 4 Ref Frames
Format settings, CABAC                   : Yes
Format settings, RefFrames               : 4 frames
Codec ID                                 : V_MPEG4/ISO/AVC
Duration                                 : 2 h 2 min
Bit rate                                 : 1 454 kb/s
Width                                    : 720 pixels
Height                                   : 304 pixels
Display aspect ratio                     : 2.35:1
Frame rate mode                          : Constant
Frame rate                               : 25.000 FPS
Color space                              : YUV
Chroma subsampling                       : 4:2:0
Bit depth                                : 8 bits
Scan type                                : Progressive
Bits/(Pixel*Frame)                       : 0.266
Stream size                              : 1.24 GiB (85%)
Title                                    : www.MovCr.cc
Writing library                          : x264 core 142 r2431 ac76440
Encoding settings                        : cabac=1 / ref=3 / deblock=1:0:0 / analyse=0x3:0x113 / me=hex / subme=7 / psy=1 / psy_rd=1.00:0.00 / mixed_ref=1 / me_range=16 / chroma_me=1 / trellis=1 / 8x8dct=1 / cqm=0 / deadzone=21,11 / fast_pskip=1 / chroma_qp_offset=-2 / threads=1 / lookahead_threads=1 / sliced_threads=0 / nr=0 / decimate=1 / interlaced=0 / bluray_compat=0 / constrained_intra=0 / bframes=3 / b_pyramid=2 / b_adapt=1 / b_bias=0 / direct=1 / weightb=1 / open_gop=0 / weightp=2 / keyint=250 / keyint_min=25 / scenecut=40 / intra_refresh=0 / rc_lookahead=40 / rc=abr / mbtree=1 / bitrate=1454 / ratetol=1.0 / qcomp=0.60 / qpmin=0 / qpmax=69 / qpstep=4 / ip_ratio=1.40 / aq=1:1.00
Default                                  : Yes
Forced                                   : No

Audio
ID                                       : 2
Format                                   : AAC
Format/Info                              : Advanced Audio Codec
Format profile                           : LC
Codec ID                                 : A_AAC-2
Duration                                 : 2 h 2 min
Bit rate                                 : 256 kb/s
Channel(s)                               : 2 channels
Channel positions                        : Front: L R
Sampling rate                            : 48.0 kHz
Frame rate                               : 46.875 FPS (1024 SPF)
Compression mode                         : Lossy
Delay relative to video                  : 9 ms
Stream size                              : 224 MiB (15%)
Title                                    : www.MovCr.cc
Language                                 : Panjabi
Default                                  : Yes
Forced                                   : No



                       
Category:Movies > Punjabi
Lang:Punjabi
Total Size:1.46 GB
Info Hash:6bae684ab1547ddd52252496f1380202d031e270
Added By:MAZE
Date Added:22-10-2018 14:11:48
Views:1,377
Hits:294

Download Torrent

Ratings:Not Yet Rated (Log in to rate it)


Tracker:
udp://tracker.coppersurfer.tk:6969/announce


File List: 


Comments

No comments still posted

Powered by 10 Hamsters v2-svn -|- Page Generated In 2.124724 secs.
-|- RSS FEED
Theme By: Nikkbu