[Login] or [Signup]
Login
Username:
Password:
[Signup]
[Recover Account]


Poll


You must be logged in to view polls



Torrent Details For "Kurmaiyan 2018 x264 720p Punjabi GOPISAHI"

Kurmaiyan 2018 x264 720p Punjabi GOPISAHI

Download this torrent | Magnet Download
Health:
Seeds: 737
Leechers: 944
Completed: 1,276 
Last Checked: 23-10-2018 16:30:05
External Torrent
Update Stats
Download Magnet


Poster
No poster


Watch-Free-HD     Download

Details
Name:Kurmaiyan 2018 x264 720p Punjabi GOPISAHI
Description:
 http://www.gopisahi.pw/

Format                         : Matroska
Format version                 : Version 4 / Version 2
File size                      : 676 MiB
Duration                       : 2 h 15 min
Overall bit rate               : 697 kb/s
Movie name                     : Kurmaiyan 2018 GOPISAHI

Video
Format                         : AVC
Format/Info                    : Advanced Video Codec
Codec ID                       : V_MPEG4/ISO/AVC
Duration                       : 2 h 15 min
Bit rate                       : 599 kb/s
Width                          : 1 280 pixels
Height                         : 580 pixels
Display aspect ratio           : 2.40:1
Frame rate mode                : Constant
Frame rate                     : 23.976 (24000/1001) FPS
Color space                    : YUV
Chroma subsampling             : 4:2:0
Bit depth                      : 8 bits
Scan type                      : Progressive
Bits/(Pixel*Frame)             : 0.034
Stream size                    : 580 MiB (86%)
Title                          : GOPISAHI
Writing library                : x264 core 155 r2901 7d0ff22

Audio
Format                         : AAC
Format/Info                    : Advanced Audio Codec
Duration                       : 2 h 15 min
Bit rate                       : 96.0 kb/s
Channel(s)                     : 2 channels
Channel positions              : Front: L R
Sampling rate                  : 48.0 kHz
Frame rate                     : 46.875 FPS (1024 SPF)
Compression mode               : Lossy
Stream size                    : 93.2 MiB (14%)
Title                          : GOPISAHI
Language                       : Panjabi


Category:Movies > Punjabi
Lang:Punjabi
Total Size:675.62 MB
Info Hash:013a6c4c0955fad21db02405c0907dc7b21bc8a4
Added By:gopisahi
Date Added:23-10-2018 08:22:17
Views:1,284
Hits:165

Download Torrent

Ratings:Not Yet Rated (Log in to rate it)


Tracker:
udp://tracker.coppersurfer.tk:6969/announce


File List: 


Comments

No comments still posted

Powered by 10 Hamsters v2-svn -|- Page Generated In 0.353333 secs.
-|- RSS FEED
Theme By: Nikkbu