[Login] or [Signup]
Login
Username:
Password:
[Signup]
[Recover Account]


Poll


You must be logged in to view polls



Torrent Details For "Asees 2018 x264 720p HD Esub Punjabi GOPISAHI"

Asees 2018 x264 720p HD Esub Punjabi GOPISAHI

Download this torrent | Magnet Download
Health:
Seeds: 100
Leechers: 7
Completed: 4,064 
Last Checked: 10-11-2018 04:35:49
External Torrent
Update Stats
Download Magnet


Poster
No poster


Watch-Free-HD     Download

Details
Name:Asees 2018 x264 720p HD Esub Punjabi GOPISAHI
Description:
 http://www.gopisahi.pw/

Format                         : Matroska
Format version                 : Version 4 / Version 2
File size                      : 615 MiB
Duration                       : 2 h 3 min
Overall bit rate               : 697 kb/s
Movie name                     : Asees 2018 GOPISAHI

Video
Format                         : AVC
Format/Info                    : Advanced Video Codec
Codec ID                       : V_MPEG4/ISO/AVC
Duration                       : 2 h 3 min
Bit rate                       : 599 kb/s
Width                          : 1 280 pixels
Height                         : 538 pixels
Display aspect ratio           : 2.40:1
Frame rate mode                : Constant
Frame rate                     : 24.000 FPS
Stream size                    : 528 MiB (86%)
Title                          : GOPISAHI
Writing library                : x264 core 155 r2901 7d0ff22

Audio
Format                         : AAC
Format/Info                    : Advanced Audio Codec
Duration                       : 2 h 3 min
Bit rate                       : 96.0 kb/s
Channel(s)                     : 2 channels
Channel positions              : Front: L R
Sampling rate                  : 48.0 kHz
Frame rate                     : 46.875 FPS (1024 SPF)
Compression mode               : Lossy
Delay relative to video        : -21 ms
Stream size                    : 84.9 MiB (14%)
Language                       : Panjabi

Text
Language                       : English


Category:Movies > Punjabi
Lang:Punjabi
Total Size:615.10 MB
Info Hash:20489fa2ab86276178be6df5fafdbb9b97051e5b
Added By:gopisahi
Date Added:02-11-2018 06:16:57
Views:686
Hits:91

Download Torrent

Ratings:Not Yet Rated (Log in to rate it)


Tracker:
udp://tracker.coppersurfer.tk:6969/announce


File List: 


Comments

No comments still posted

Powered by 10 Hamsters v2-svn -|- Page Generated In 0.246078 secs.
-|- RSS FEED
Theme By: Nikkbu