[Login] or [Signup]
Login
Username:
Password:
[Signup]
[Recover Account]


Poll


You must be logged in to view polls



Torrent Details For "Mr & Mrs 420 Returns 2018 x264 720p SD Punjabi GOPISAHI"

Mr & Mrs 420 Returns 2018 x264 720p SD Punjabi GOPISAHI

Download this torrent | Magnet Download
Health:
Seeds: 883
Leechers: 346
Completed: 15,142 
Last Checked: 13-11-2018 13:18:34
External Torrent
Update Stats
Download Magnet


Poster
No poster


Watch-Free-HD     Download

Details
Name:Mr & Mrs 420 Returns 2018 x264 720p SD Punjabi GOPISAHI
Description:
 http://www.gopisahi.pw/

Format                         : Matroska
Format version                 : Version 4 / Version 2
File size                      : 664 MiB
Duration                       : 2 h 13 min
Overall bit rate               : 697 kb/s
Movie name                     : Mr & Mrs 420 Returns 2018 GOPISAHI

Video
Format                         : AVC
Codec ID                       : V_MPEG4/ISO/AVC
Duration                       : 2 h 13 min
Bit rate                       : 599 kb/s
Width                          : 1 280 pixels
Height                         : 534 pixels
Display aspect ratio           : 2.40:1
Frame rate mode                : Constant
Frame rate                     : 25.000 FPS
Color space                    : YUV
Chroma subsampling             : 4:2:0
Bit depth                      : 8 bits
Scan type                      : Progressive
Bits/(Pixel*Frame)             : 0.035
Stream size                    : 570 MiB (86%)
Title                          : GOPISAHI
Writing library                : x264 core 155 r2901 7d0ff22

Audio
Format                         : AAC
Format/Info                    : Advanced Audio Codec
Duration                       : 2 h 13 min
Bit rate                       : 96.0 kb/s
Channel(s)                     : 2 channels
Channel positions              : Front: L R
Sampling rate                  : 48.0 kHz
Frame rate                     : 46.875 FPS (1024 SPF)
Compression mode               : Lossy
Delay relative to video        : -21 ms
Stream size                    : 91.7 MiB (14%)
Title                          : GOPISAHI
Language                       : Panjabi


Category:Movies > Punjabi
Lang:Punjabi
Total Size:664.11 MB
Info Hash:459a6924d6a23fd67c4ec8bcbdfec159de746a78
Added By:gopisahi
Date Added:09-11-2018 07:26:17
Views:1,274
Hits:321

Download Torrent

Ratings:Not Yet Rated (Log in to rate it)


Tracker:
udp://tracker.coppersurfer.tk:6969/announce


File List: 


Comments

No comments still posted

Powered by 10 Hamsters v2-svn -|- Page Generated In 0.302142 secs.
-|- RSS FEED
Theme By: Nikkbu